South.Park.S24E00.Post.COVID.초고화질.WEB.H264-WHOSNEXT > 외국티비
웹하드 가입에서 다운로드까지 어렵지 않아요~
웹하드 가입에서 다운로드까지 어렵지 않아요~
 [구글검색] 구글에서 더토렌트 검색 - 구글에서 토렌트를 검색하실 때에 검색어 뒤에 더토렌트를 꼭 붙여서 검색하세요.     더토렌트에서 광고중인 웹에 문제가 있다면 메뉴에 나와 있는 운영자 이메일로 연락 주십시오.     사용자님의 다운로드가 완료될 때까지 저희가 함께하겠습니다. 편안하고 즐거운 시간 되십시오.

시작페이지
파일비트

[초고화질] South.Park.S24E00.Post.COVID.초고화질.WEB.H264-WHOSNEXT 토렌트
  • 파일설명:     Screens... (click to enlarge): South.Park.S24E00.Post.COVID.1080p.WEB.H264-WHOSNEXTInfolink -> https://www.imdb.com/title/tt0121955/Quote:MediainfoVideoID : 1Format : AVCFormat/Info : Advanced Video CodecFormat profile : [email protected]Format settings : CABAC / 4 Ref FramesFormat settings, CABAC : YesFormat settings, Reference frames : 4 framesCodec ID : V_MPEG4/ISO/AVCDuration : 59 min 17 sBit rate : 3 326 kb/sWidth : 1 920 pixelsHeight : 1 080 pixelsDisplay aspect ratio : 16:9Frame rate mode : ConstantFrame rate : 24.000 FPSColor space : YUVChroma subsampling : 4:2:0Bit depth : 8 bitsScan type : ProgressiveBits/(Pixel*Frame) : 0.067Stream size : 1.38 GiB (82%)Default : YesForced : NoColor range : LimitedColor primaries : BT.709Transfer characteristics : BT.709Matrix coefficients : BT.709AudioID : 2Format : E-AC-3Format/Info : Enhanced AC-3Commercial name : Dolby Digital PlusCodec ID : A_EAC3Duration : 59 min 17 sBit rate mode : ConstantBit rate : 640 kb/sChannel(s) : 6 channelsChannel layout : L R C LFE Ls RsSampling rate : 48.0 kHzFrame rate : 31.250 FPS (1536 SPF)Compression mode : LossyDelay relative to video : 16 msStream size : 271 MiB (16%)Language : EnglishService kind : Complete MainDefault : YesForced : NoTextID : 3Format : UTF-8Codec ID : S_TEXT/UTF8Codec ID/Info : UTF-8 Plain TextTitle : EnglishLanguage : EnglishDefault : NoForced : No South.Park.S24E00.Post.COVID.1080p.WEB.H264-WHOSNEXT…
  • 인기 연관 검색어 구글 검색:    SouthParkPostCOVID 더토렌트    
  • 관련 자료(가나다순):    Dateline Secrets Uncovered S09E08 Mystery in South Beach 480p x…    Southland 2009 Season 5 Complete 고화질 AMZN WEBRip x264 i_c
  • 관련 자료(시간순):    Dateline Secrets Uncovered S09E08 Mystery in South Beach 480p x…    South Park S00E43 Post Covid 고화질 PMTP WEBRip DDP5 1 x264-NTb
  • 같은 시각 자료:    Star.Trek.Discovery.S04E02.WEBRip.x264-ION10    Star.Trek.Discovery.S04E02.고화질.WEB.H264-CAKES
  직접 다운로드      무료 다운로드

[초고화질] South.Park.S24E00.Post.COVID.초고화질.WEB.H264-WHOSNEXT > 외국티비       즐겨찾기 등록

[초고화질] South.Park.S24E00.Post.COVID.초고화질.WEB.H264-WHOSNEXT
[초고화질] South.Park.S24E00.Post.COVID.초고화질.WEB.H264-WHOSNEXT
[초고화질] South.Park.S24E00.Post.COVID.초고화질.WEB.H264-WHOSNEXT

Screens... (click to enlarge):





South.Park.S24E00.Post.COVID.1080p.WEB.H264-WHOSNEXT

Infolink -> https://www.imdb.com/title/tt0121955/

Quote:

Mediainfo
Video
ID : 1
Format : AVC
Format/Info : Advanced Video Codec
Format profile : [email protected]
Format settings : CABAC / 4 Ref Frames
Format settings, CABAC : Yes
Format settings, Reference frames : 4 frames
Codec ID : V_MPEG4/ISO/AVC
Duration : 59 min 17 s
Bit rate : 3 326 kb/s
Width : 1 920 pixels
Height : 1 080 pixels
Display aspect ratio : 16:9
Frame rate mode : Constant
Frame rate : 24.000 FPS
Color space : YUV
Chroma subsampling : 4:2:0
Bit depth : 8 bits
Scan type : Progressive
Bits/(Pixel*Frame) : 0.067
Stream size : 1.38 GiB (82%)
Default : Yes
Forced : No
Color range : Limited
Color primaries : BT.709
Transfer characteristics : BT.709
Matrix coefficients : BT.709

Audio
ID : 2
Format : E-AC-3
Format/Info : Enhanced AC-3
Commercial name : Dolby Digital Plus
Codec ID : A_EAC3
Duration : 59 min 17 s
Bit rate mode : Constant
Bit rate : 640 kb/s
Channel(s) : 6 channels
Channel layout : L R C LFE Ls Rs
Sampling rate : 48.0 kHz
Frame rate : 31.250 FPS (1536 SPF)
Compression mode : Lossy
Delay relative to video : 16 ms
Stream size : 271 MiB (16%)
Language : English
Service kind : Complete Main
Default : Yes
Forced : No

Text
ID : 3
Format : UTF-8
Codec ID : S_TEXT/UTF8
Codec ID/Info : UTF-8 Plain Text
Title : English
Language : English
Default : No
Forced : No

South.Park.S24E00.Post.COVID.1080p.WEB.H264-WHOSNEXT


<<

이 게시판에서 관련된 자료 목록

>>
웹하드 가입에서 다운로드까지 어렵지 않아요~
웹하드 가입에서 다운로드까지 어렵지 않아요~

오늘의 업데이트


외국티비 인기글


Facebook Twitter GooglePlus KakaoStory NaverBand