Venom.La.Furia.Di.Carnage.2021.iTA-ENG.WEBDL.2160p.HDR.x265-CYBER... > 영화
웹하드 가입에서 다운로드까지 어렵지 않아요~
웹하드 가입에서 다운로드까지 어렵지 않아요~
 [구글검색] 구글에서 더토렌트 검색 - 구글에서 토렌트를 검색하실 때에 검색어 뒤에 더토렌트를 꼭 붙여서 검색하세요.     더토렌트에서 광고중인 웹에 문제가 있다면 메뉴에 나와 있는 운영자 이메일로 연락 주십시오.     사용자님의 다운로드가 완료될 때까지 저희가 함께하겠습니다. 편안하고 즐거운 시간 되십시오.

시작페이지
파일몽

[4K UHD] Venom.La.Furia.Di.Carnage.2021.iTA-ENG.WEBDL.2160p.HDR.x265-CYBER... 토렌트
  • 줄거리:    DATI - TRAMA USA, 2021 Genere: Supereroi durata 90 Regia di Andy Serkis Con Tom Hardy, Woody Harrelson, Naomie Harris, Michelle Williams, Stephen Graham, Reid Scott, Sean Delaney, Amber Sienna, Michelle Greenidge. La convivenza già traballante tra Eddie Brock e Venom comincia a sgretolarsi. Ci sono però ancora dei lati positivi di cui entrambi godono: Eddie ha lasciato a Venom la possibilità di lottare in nome della giustizia proprio mentre la sua carriera è in ripresa, ottenendo persino lultima decisiva intervista rilasciata dal serial killer Clatus Kasady. Nonostante ciò, non è facile andare avanti quando ogni battibecco si trasforma in violenta battaglia mentre cercano di capire chi sta buttando fuori chi dallappartamento e dal corpo che condividono. Sia Venom sia Eddie dovranno capire se realmente, dopotutto, hanno bisogno luno dellaltro. Una risposta arriverà loro dalla comparsa in scena di Carnage, un simbionte ancora più grande, spietato e malvagio, che si impossessa del corpo di Cletus pochi istanti prima della sua esecuzione. IMMAGINI DATI - TRAMA USA, 2021 Genere: Supereroi durata 90 Regia di Andy Serkis Con Tom Hardy, Woody Harrelson, Naomie Harris, Michelle Williams, Stephen Graham, Reid Scott, Sean Delaney, Amber Sienna, Michelle Greenidge. La convivenza già traballante tra Eddie Brock e Venom comincia a sgretolarsi. Ci sono però ancora dei lati positivi di cui entrambi godono: Eddie ha lasciato a Venom la possibilità di lottare in nome della giustizia proprio mentre la sua carriera è in ripresa, ottenendo persino lultima decisiva intervista rilasciata dal serial killer Clatus Kasady. Nonostante ciò, non è facile andare avanti quando ogni battibecco si trasforma in violenta battaglia mentre cercano di capire chi sta buttando fuori chi dallappartamento e dal corpo che condividono. Sia Venom sia Eddie dovranno capire se realmente, dopotutto, hanno bisogno luno dellaltro. Una risposta arriverà loro dalla comparsa in scena di Carnage, un simbionte ancora più grande, spietato e malvagio, che si impossessa del corpo di Cletus pochi istanti prima della sua esecuzione. IMMAGINI REPORT General Unique ID : 196414121842499089930989047794542383471 (0x93C3FBDF471F68F15EE9A1D33D7D116F) Complete name : E:\Venom.La.Furia.Di.Carnage.2021.iTA-ENG.WEBDL.2160p.HDR.x265-CYBER.mkv Format : Matroska Format version : Version 4 File size : 11.5 GiB Duration : 1 h 37 min Overall bit rate : 16.9 Mb/s Movie name : "ENJOY" Encoded date : UTC 2021-11-25 17:18:37 Writing application : mkvmerge v45.0.0 (Heaven in Pennies) 64-bit Writing library : libebml v1.3.10 + libmatroska v1.5.2 Video ID : 1 Format : HEVC Format/Info : High Efficiency Video Coding Format profile : Main [email protected]@High HDR format : SMPTE ST 2086, HDR10 compatible Codec ID : V_MPEGH/ISO/HEVC Duration : 1 h 37 min Bit rate : 14.3 Mb/s Width : 3 840 pixels Height : 2 068 pixels Display aspect ratio : 1.85:1 Frame rate mode : Constant Frame rate : 23.976 (24000/1001) FPS Color space : YUV Chroma subsampling : 4:2:0 (Type 2) Bit depth : 10 bits Bits/(Pixel*Frame) : 0.075 Stream size : 9.69 GiB (84%) Language : English Default : Yes Forced : No Color range : Limited Color primaries : BT.2020 Transfer characteristics : PQ Matrix coefficients : BT.2020 non-constant Mastering display color primaries : BT.2020 Mastering display luminance : min: 0.0050 cd/m2, max: 1000 cd/m2 Maximum Content Light Level : 10000 cd/m2 Maximum Frame-Average Light Level : 524 cd/m2 Audio #1 ID : 2 Format : E-AC-3 Format/Info : Enhanced AC-3 Commercial name : Dolby Digital Plus Codec ID : A_EAC3 Duration : 1 h 37 min Bit rate mode : Constant Bit rate : 640 kb/s Channel(s) : 6 channels Channel layout : L R C LFE Ls Rs Sampling rate : 48.0 kHz Frame rate : 31.250 FPS (1536 SPF) Compression mode : Lossy Stream size : 447 MiB (4%) Language : Italian Service kind : Complete Main Default : No Forced : No Audio #2 ID : 3 Format : AC-3 Format/Info : Audio Coding 3 Commercial name : Dolby Digital Codec ID : A_AC3 Duration : 1 h 37 min Bit rate mode : Constant Bit rate : 640 kb/s Channel(s) : 6 channels Channel layout : L R C LFE Ls Rs Sampling rate : 48.0 kHz Frame rate : 31.250 FPS (1536 SPF) Compression mode : Lossy Stream size : 447 MiB (4%) Language : Italian Service kind : Complete Main Default : No Forced : No Audio #3 ID : 4 Format : E-AC-3 JOC Format/Info : Enhanced AC-3 with Joint Object Coding Commercial name : Dolby Digital Plus with Dolby Atmos Codec ID : A_EAC3 Duration : 1 h 37 min Bit rate mode : Constant Bit rate : 768 kb/s Channel(s) : 6 channels Channel layout : L R C LFE Ls Rs Sampling rate : 48.0 kHz Frame rate : 31.250 FPS (1536 SPF) Compression mode : Lossy Stream size : 534 MiB (5%) Language : English Service kind : Complete Main Default : No Forced : No Complexity index : 16 Number of dynamic objects : 15 Bed channel count : 1 channel Bed channel configuration : LFE Audio #4 ID : 5 Format : AC-3 Format/Info : Audio Coding 3 Commercial name : Dolby Digital Codec ID : A_AC3 Duration : 1 h 37 min Bit rate mode : Constant Bit rate : 640 kb/s Channel(s) : 6 channels Channel layout : L R C LFE Ls Rs Sampling rate : 48.0 kHz Frame rate : 31.250 FPS (1536 SPF) Compression mode : Lossy Stream size : 445 MiB (4%) Language : English Service kind : Complete Main Default : No Forced : No Text #1 ID : 6 Format : UTF-8 Codec ID : S_TEXT/UTF8 Codec ID/Info : UTF-8 Plain Text Duration : 1 h 23 min Bit rate : 0 b/s Count of elements : 11 Stream size : 298 Bytes (0%) Title : FORCED Language : Italian Default : Yes Forced : No Text #2 ID : 7 Format : UTF-8 Codec ID : S_TEXT/UTF8 Codec ID/Info : UTF-8 Plain Text Duration : 1 h 36 min Bit rate : 48 b/s Count of elements : 1057 Stream size : 34.4 KiB (0%) Title : REGOLARI Language : Italian Default : No Forced : No Text #3 ID : 8 Format : UTF-8 Codec ID : S_TEXT/UTF8 Codec ID/Info : UTF-8 Plain Text Duration : 1 h 36 min Bit rate : 71 b/s Count of elements : 1860 Stream size : 50.5 KiB (0%) Title : NON UDENTI Language : English Default : No Forced : No Menu 00:00:00.000 : en:Chapter 1 00:05:25.949 : en:Chapter 2 00:11:33.485 : en:Chapter 3 00:18:22.434 : en:Chapter 4 00:23:00.630 : en:Chapter 5 00:30:27.160 : en:Chapter 6 00:35:03.769 : en:Chapter 7 00:43:09.130 : en:Chapter 8 00:47:27.347 : en:Chapter 9 00:54:53.418 : en:Chapter 10 01:01:32.817 : en:Chapter 11 01:06:19.478 : en:Chapter 12 01:11:49.184 : en:Chapter 13 01:18:03.725 : en:Chapter 14 01:21:52.494 : en:Chapter 15 01:26:41.326 : en:Chapter 16 GOOD DOWNLOAD Venom.La.Furia.Di.Carnage.2021.iTA-ENG.WEBDL.2160p.HDR.x265-CYBER...…
  • 인기 연관 검색어 구글 검색:    Venom 더토렌트    VenomLet 더토렌트    
  • 관련 자료(가나다순):    4K 베놈 Venom 2018 2160p BluRay x265 HEVC 10bit HDR AAC 7 1 Tigol…    잔결 殘缺 The Five Deadly Venoms 1978 고화질 BRRip XviD AC3 DUBBED RAR…
  • 관련 자료(시간순):    베놈 Venom 2005 초고화질 BluRay X264-OEM1080/고화질+초고화질 BluRay H264 AAC…    Venom Let There Be Carnage 2021 초고화질 BluRay H264 AAC
  • 같은 시각 자료:    A Snowy Christmas 2021 UpTv 고화질 WEB X264 Solar    Becoming.Cousteau.2021.WEBRip.x264-ION10
  직접 다운로드      무료 다운로드

[4K UHD] Venom.La.Furia.Di.Carnage.2021.iTA-ENG.WEBDL.2160p.HDR.x265-CYBER... > 영화       즐겨찾기 등록

[4K UHD] Venom.La.Furia.Di.Carnage.2021.iTA-ENG.WEBDL.2160p.HDR.x265-CYBER...
  • Venom.La.Furia.Di.Carnage.2021.iTA-ENG.WEBDL.2160p.HDR.x265-CYBER...  로고   토렌트 링크 제공 서치엔진
  • Venom.La.Furia.Di.Carnage.2021.iTA-ENG.WEBDL.2160p.HDR.x265-CYBER... 로고   무제한 다운로드
  • Venom.La.Furia.Di.Carnage.2021.iTA-ENG.WEBDL.2160p.HDR.x265-CYBER... 로고   빠른 열차에 탑승해 KTX토렌트
  • Venom.La.Furia.Di.Carnage.2021.iTA-ENG.WEBDL.2160p.HDR.x265-CYBER... 로고   갓구운 토렌트 토스트
  • Venom.La.Furia.Di.Carnage.2021.iTA-ENG.WEBDL.2160p.HDR.x265-CYBER... 로고   무제한 다운로드
  • Venom.La.Furia.Di.Carnage.2021.iTA-ENG.WEBDL.2160p.HDR.x265-CYBER... 로고   너의 토렌트 토렌트유
  • Venom.La.Furia.Di.Carnage.2021.iTA-ENG.WEBDL.2160p.HDR.x265-CYBER... 로고   토렌트 노리터 토렌트노리
  • DATI - TRAMA USA, 2021 Genere: Supereroi durata 90 Regia di Andy Serkis Con Tom Hardy, Woody Harrelson, Naomie Harris, Michelle Williams, Stephen Graham, Reid Scott, Sean Delaney, Amber Sienna, Michelle Greenidge. La convivenza già traballante tra Eddie Brock e Venom comincia a sgretolarsi. Ci sono però ancora dei lati positivi di cui entrambi godono: Eddie ha lasciato a Venom la possibilità di lottare in nome della giustizia proprio mentre la sua carriera è in ripresa, ottenendo persino lultima decisiva intervista rilasciata dal serial killer Clatus Kasady. Nonostante ciò, non è facile andare avanti quando ogni battibecco si trasforma in violenta battaglia mentre cercano di capire chi sta buttando fuori chi dallappartamento e dal corpo che condividono. Sia Venom sia Eddie dovranno capire se realmente, dopotutto, hanno bisogno luno dellaltro. Una risposta arriverà loro dalla comparsa in scena di Carnage, un simbionte ancora più grande, spietato e malvagio, che si impossessa del corpo di Cletus pochi istanti prima della sua esecuzione. IMMAGINI DATI - TRAMA USA, 2021 Genere: Supereroi durata 90 Regia di Andy Serkis Con Tom Hardy, Woody Harrelson, Naomie Harris, Michelle Williams, Stephen Graham, Reid Scott, Sean Delaney, Amber Sienna, Michelle Greenidge. La convivenza già traballante tra Eddie Brock e Venom comincia a sgretolarsi. Ci sono però ancora dei lati positivi di cui entrambi godono: Eddie ha lasciato a Venom la possibilità di lottare in nome della giustizia proprio mentre la sua carriera è in ripresa, ottenendo persino lultima decisiva intervista rilasciata dal serial killer Clatus Kasady. Nonostante ciò, non è facile andare avanti quando ogni battibecco si trasforma in violenta battaglia mentre cercano di capire chi sta buttando fuori chi dallappartamento e dal corpo che condividono. Sia Venom sia Eddie dovranno capire se realmente, dopotutto, hanno bisogno luno dellaltro. Una risposta arriverà loro dalla comparsa in scena di Carnage, un simbionte ancora più grande, spietato e malvagio, che si impossessa del corpo di Cletus pochi istanti prima della sua esecuzione. IMMAGINI REPORT General Unique ID : 196414121842499089930989047794542383471 (0x93C3FBDF471F68F15EE9A1D33D7D116F) Complete name : E:\Venom.La.Furia.Di.Carnage.2021.iTA-ENG.WEBDL.2160p.HDR.x265-CYBER.mkv Format : Matroska Format version : Version 4 File size : 11.5 GiB Duration : 1 h 37 min Overall bit rate : 16.9 Mb/s Movie name : "ENJOY" Encoded date : UTC 2021-11-25 17:18:37 Writing application : mkvmerge v45.0.0 (Heaven in Pennies) 64-bit Writing library : libebml v1.3.10 + libmatroska v1.5.2 Video ID : 1 Format : HEVC Format/Info : High Efficiency Video Coding Format profile : Main [email protected]@High HDR format : SMPTE ST 2086, HDR10 compatible Codec ID : V_MPEGH/ISO/HEVC Duration : 1 h 37 min Bit rate : 14.3 Mb/s Width : 3 840 pixels Height : 2 068 pixels Display aspect ratio : 1.85:1 Frame rate mode : Constant Frame rate : 23.976 (24000/1001) FPS Color space : YUV Chroma subsampling : 4:2:0 (Type 2) Bit depth : 10 bits Bits/(Pixel*Frame) : 0.075 Stream size : 9.69 GiB (84%) Language : English Default : Yes Forced : No Color range : Limited Color primaries : BT.2020 Transfer characteristics : PQ Matrix coefficients : BT.2020 non-constant Mastering display color primaries : BT.2020 Mastering display luminance : min: 0.0050 cd/m2, max: 1000 cd/m2 Maximum Content Light Level : 10000 cd/m2 Maximum Frame-Average Light Level : 524 cd/m2 Audio #1 ID : 2 Format : E-AC-3 Format/Info : Enhanced AC-3 Commercial name : Dolby Digital Plus Codec ID : A_EAC3 Duration : 1 h 37 min Bit rate mode : Constant Bit rate : 640 kb/s Channel(s) : 6 channels Channel layout : L R C LFE Ls Rs Sampling rate : 48.0 kHz Frame rate : 31.250 FPS (1536 SPF) Compression mode : Lossy Stream size : 447 MiB (4%) Language : Italian Service kind : Complete Main Default : No Forced : No Audio #2 ID : 3 Format : AC-3 Format/Info : Audio Coding 3 Commercial name : Dolby Digital Codec ID : A_AC3 Duration : 1 h 37 min Bit rate mode : Constant Bit rate : 640 kb/s Channel(s) : 6 channels Channel layout : L R C LFE Ls Rs Sampling rate : 48.0 kHz Frame rate : 31.250 FPS (1536 SPF) Compression mode : Lossy Stream size : 447 MiB (4%) Language : Italian Service kind : Complete Main Default : No Forced : No Audio #3 ID : 4 Format : E-AC-3 JOC Format/Info : Enhanced AC-3 with Joint Object Coding Commercial name : Dolby Digital Plus with Dolby Atmos Codec ID : A_EAC3 Duration : 1 h 37 min Bit rate mode : Constant Bit rate : 768 kb/s Channel(s) : 6 channels Channel layout : L R C LFE Ls Rs Sampling rate : 48.0 kHz Frame rate : 31.250 FPS (1536 SPF) Compression mode : Lossy Stream size : 534 MiB (5%) Language : English Service kind : Complete Main Default : No Forced : No Complexity index : 16 Number of dynamic objects : 15 Bed channel count : 1 channel Bed channel configuration : LFE Audio #4 ID : 5 Format : AC-3 Format/Info : Audio Coding 3 Commercial name : Dolby Digital Codec ID : A_AC3 Duration : 1 h 37 min Bit rate mode : Constant Bit rate : 640 kb/s Channel(s) : 6 channels Channel layout : L R C LFE Ls Rs Sampling rate : 48.0 kHz Frame rate : 31.250 FPS (1536 SPF) Compression mode : Lossy Stream size : 445 MiB (4%) Language : English Service kind : Complete Main Default : No Forced : No Text #1 ID : 6 Format : UTF-8 Codec ID : S_TEXT/UTF8 Codec ID/Info : UTF-8 Plain Text Duration : 1 h 23 min Bit rate : 0 b/s Count of elements : 11 Stream size : 298 Bytes (0%) Title : FORCED Language : Italian Default : Yes Forced : No Text #2 ID : 7 Format : UTF-8 Codec ID : S_TEXT/UTF8 Codec ID/Info : UTF-8 Plain Text Duration : 1 h 36 min Bit rate : 48 b/s Count of elements : 1057 Stream size : 34.4 KiB (0%) Title : REGOLARI Language : Italian Default : No Forced : No Text #3 ID : 8 Format : UTF-8 Codec ID : S_TEXT/UTF8 Codec ID/Info : UTF-8 Plain Text Duration : 1 h 36 min Bit rate : 71 b/s Count of elements : 1860 Stream size : 50.5 KiB (0%) Title : NON UDENTI Language : English Default : No Forced : No Menu 00:00:00.000 : en:Chapter 1 00:05:25.949 : en:Chapter 2 00:11:33.485 : en:Chapter 3 00:18:22.434 : en:Chapter 4 00:23:00.630 : en:Chapter 5 00:30:27.160 : en:Chapter 6 00:35:03.769 : en:Chapter 7 00:43:09.130 : en:Chapter 8 00:47:27.347 : en:Chapter 9 00:54:53.418 : en:Chapter 10 01:01:32.817 : en:Chapter 11 01:06:19.478 : en:Chapter 12 01:11:49.184 : en:Chapter 13 01:18:03.725 : en:Chapter 14 01:21:52.494 : en:Chapter 15 01:26:41.326 : en:Chapter 16 GOOD DOWNLOAD Venom.La.Furia.Di.Carnage.2021.iTA-ENG.WEBDL.2160p.HDR.x265-CYBER...…

[4K UHD] Venom.La.Furia.Di.Carnage.2021.iTA-ENG.WEBDL.2160p.HDR.x265-CYBER...
[4K UHD] Venom.La.Furia.Di.Carnage.2021.iTA-ENG.WEBDL.2160p.HDR.x265-CYBER...
스크린샷

DATI - TRAMA

USA, 2021
Genere: Supereroi
durata 90
Regia di Andy Serkis
Con Tom Hardy, Woody Harrelson, Naomie Harris, Michelle Williams, Stephen Graham, Reid Scott, Sean Delaney, Amber Sienna, Michelle Greenidge.


La convivenza già traballante tra Eddie Brock e Venom comincia a sgretolarsi. Ci sono però ancora dei lati positivi di cui entrambi godono: Eddie ha lasciato a Venom la possibilità di lottare in nome della giustizia proprio mentre la sua carriera è in ripresa, ottenendo persino lultima decisiva intervista rilasciata dal serial killer Clatus Kasady. Nonostante ciò, non è facile andare avanti quando ogni battibecco si trasforma in violenta battaglia mentre cercano di capire chi sta buttando fuori chi dallappartamento e dal corpo che condividono. Sia Venom sia Eddie dovranno capire se realmente, dopotutto, hanno bisogno luno dellaltro. Una risposta arriverà loro dalla comparsa in scena di Carnage, un simbionte ancora più grande, spietato e malvagio, che si impossessa del corpo di Cletus pochi istanti prima della sua esecuzione.

IMMAGINI



스크린샷

DATI - TRAMA

USA, 2021
Genere: Supereroi
durata 90
Regia di Andy Serkis
Con Tom Hardy, Woody Harrelson, Naomie Harris, Michelle Williams, Stephen Graham, Reid Scott, Sean Delaney, Amber Sienna, Michelle Greenidge.


La convivenza già traballante tra Eddie Brock e Venom comincia a sgretolarsi. Ci sono però ancora dei lati positivi di cui entrambi godono: Eddie ha lasciato a Venom la possibilità di lottare in nome della giustizia proprio mentre la sua carriera è in ripresa, ottenendo persino lultima decisiva intervista rilasciata dal serial killer Clatus Kasady. Nonostante ciò, non è facile andare avanti quando ogni battibecco si trasforma in violenta battaglia mentre cercano di capire chi sta buttando fuori chi dallappartamento e dal corpo che condividono. Sia Venom sia Eddie dovranno capire se realmente, dopotutto, hanno bisogno luno dellaltro. Una risposta arriverà loro dalla comparsa in scena di Carnage, un simbionte ancora più grande, spietato e malvagio, che si impossessa del corpo di Cletus pochi istanti prima della sua esecuzione.

IMMAGINI





REPORT

General
Unique ID : 196414121842499089930989047794542383471 (0x93C3FBDF471F68F15EE9A1D33D7D116F)
Complete name : E:\Venom.La.Furia.Di.Carnage.2021.iTA-ENG.WEBDL.2160p.HDR.x265-CYBER.mkv
Format : Matroska
Format version : Version 4
File size : 11.5 GiB
Duration : 1 h 37 min
Overall bit rate : 16.9 Mb/s
Movie name : "ENJOY"
Encoded date : UTC 2021-11-25 17:18:37
Writing application : mkvmerge v45.0.0 (Heaven in Pennies) 64-bit
Writing library : libebml v1.3.10 + libmatroska v1.5.2

Video
ID : 1
Format : HEVC
Format/Info : High Efficiency Video Coding
Format profile : Main [email protected]@High
HDR format : SMPTE ST 2086, HDR10 compatible
Codec ID : V_MPEGH/ISO/HEVC
Duration : 1 h 37 min
Bit rate : 14.3 Mb/s
Width : 3 840 pixels
Height : 2 068 pixels
Display aspect ratio : 1.85:1
Frame rate mode : Constant
Frame rate : 23.976 (24000/1001) FPS
Color space : YUV
Chroma subsampling : 4:2:0 (Type 2)
Bit depth : 10 bits
Bits/(Pixel*Frame) : 0.075
Stream size : 9.69 GiB (84%)
Language : English
Default : Yes
Forced : No
Color range : Limited
Color primaries : BT.2020
Transfer characteristics : PQ
Matrix coefficients : BT.2020 non-constant
Mastering display color primaries : BT.2020
Mastering display luminance : min: 0.0050 cd/m2, max: 1000 cd/m2
Maximum Content Light Level : 10000 cd/m2
Maximum Frame-Average Light Level : 524 cd/m2

Audio #1
ID : 2
Format : E-AC-3
Format/Info : Enhanced AC-3
Commercial name : Dolby Digital Plus
Codec ID : A_EAC3
Duration : 1 h 37 min
Bit rate mode : Constant
Bit rate : 640 kb/s
Channel(s) : 6 channels
Channel layout : L R C LFE Ls Rs
Sampling rate : 48.0 kHz
Frame rate : 31.250 FPS (1536 SPF)
Compression mode : Lossy
Stream size : 447 MiB (4%)
Language : Italian
Service kind : Complete Main
Default : No
Forced : No

Audio #2
ID : 3
Format : AC-3
Format/Info : Audio Coding 3
Commercial name : Dolby Digital
Codec ID : A_AC3
Duration : 1 h 37 min
Bit rate mode : Constant
Bit rate : 640 kb/s
Channel(s) : 6 channels
Channel layout : L R C LFE Ls Rs
Sampling rate : 48.0 kHz
Frame rate : 31.250 FPS (1536 SPF)
Compression mode : Lossy
Stream size : 447 MiB (4%)
Language : Italian
Service kind : Complete Main
Default : No
Forced : No

Audio #3
ID : 4
Format : E-AC-3 JOC
Format/Info : Enhanced AC-3 with Joint Object Coding
Commercial name : Dolby Digital Plus with Dolby Atmos
Codec ID : A_EAC3
Duration : 1 h 37 min
Bit rate mode : Constant
Bit rate : 768 kb/s
Channel(s) : 6 channels
Channel layout : L R C LFE Ls Rs
Sampling rate : 48.0 kHz
Frame rate : 31.250 FPS (1536 SPF)
Compression mode : Lossy
Stream size : 534 MiB (5%)
Language : English
Service kind : Complete Main
Default : No
Forced : No
Complexity index : 16
Number of dynamic objects : 15
Bed channel count : 1 channel
Bed channel configuration : LFE

Audio #4
ID : 5
Format : AC-3
Format/Info : Audio Coding 3
Commercial name : Dolby Digital
Codec ID : A_AC3
Duration : 1 h 37 min
Bit rate mode : Constant
Bit rate : 640 kb/s
Channel(s) : 6 channels
Channel layout : L R C LFE Ls Rs
Sampling rate : 48.0 kHz
Frame rate : 31.250 FPS (1536 SPF)
Compression mode : Lossy
Stream size : 445 MiB (4%)
Language : English
Service kind : Complete Main
Default : No
Forced : No

Text #1
ID : 6
Format : UTF-8
Codec ID : S_TEXT/UTF8
Codec ID/Info : UTF-8 Plain Text
Duration : 1 h 23 min
Bit rate : 0 b/s
Count of elements : 11
Stream size : 298 Bytes (0%)
Title : FORCED
Language : Italian
Default : Yes
Forced : No

Text #2
ID : 7
Format : UTF-8
Codec ID : S_TEXT/UTF8
Codec ID/Info : UTF-8 Plain Text
Duration : 1 h 36 min
Bit rate : 48 b/s
Count of elements : 1057
Stream size : 34.4 KiB (0%)
Title : REGOLARI
Language : Italian
Default : No
Forced : No

Text #3
ID : 8
Format : UTF-8
Codec ID : S_TEXT/UTF8
Codec ID/Info : UTF-8 Plain Text
Duration : 1 h 36 min
Bit rate : 71 b/s
Count of elements : 1860
Stream size : 50.5 KiB (0%)
Title : NON UDENTI
Language : English
Default : No
Forced : No

Menu
00:00:00.000 : en:Chapter 1
00:05:25.949 : en:Chapter 2
00:11:33.485 : en:Chapter 3
00:18:22.434 : en:Chapter 4
00:23:00.630 : en:Chapter 5
00:30:27.160 : en:Chapter 6
00:35:03.769 : en:Chapter 7
00:43:09.130 : en:Chapter 8
00:47:27.347 : en:Chapter 9
00:54:53.418 : en:Chapter 10
01:01:32.817 : en:Chapter 11
01:06:19.478 : en:Chapter 12
01:11:49.184 : en:Chapter 13
01:18:03.725 : en:Chapter 14
01:21:52.494 : en:Chapter 15
01:26:41.326 : en:Chapter 16

GOOD DOWNLOAD

Venom.La.Furia.Di.Carnage.2021.iTA-ENG.WEBDL.2160p.HDR.x265-CYBER...


<<

이 게시판에서 관련된 자료 목록

>>
웹하드 가입에서 다운로드까지 어렵지 않아요~
웹하드 가입에서 다운로드까지 어렵지 않아요~

오늘(6시간)의 업데이트


영화 인기글


Facebook Twitter GooglePlus KakaoStory NaverBand